<?xml version="1.0" standalone="no"?>
<!DOCTYPE svg PUBLIC "-//W3C//DTD SVG 1.1//EN" "http://www.w3.org/Graphics/SVG/1.1/DTD/svg11.dtd" >
<svg xmlns="http://www.w3.org/2000/svg">
<metadata>
This is a custom SVG webfont generated by Font Squirrel.
Copyright   : Copyright c 2011 by vernon adams
</metadata>
<defs>
<font id="BowlbyOneSCRegular" horiz-adv-x="858" >
<font-face units-per-em="2048" ascent="1638" descent="-410" />
<missing-glyph horiz-adv-x="616" />
<glyph unicode=" "  horiz-adv-x="616" />
<glyph unicode="&#x09;" horiz-adv-x="616" />
<glyph unicode="&#xa0;" horiz-adv-x="616" />
<glyph unicode="!" horiz-adv-x="792" d="M90 1462q0 34 170 34h120q148 12 236 12q90 0 90 -40l-72 -911q-2 -35 -118 -35q-13 0 -39 1t-39 1q-27 0 -79 -2t-79 -2h-86q-10 3 -17.5 10t-12 15t-8 20.5t-5.5 22.5t-2.5 26t-1 26t-0.5 26zM112 152q0 51 4.5 97t12.5 76.5t19 30.5h196q70 0 120 -1t84.5 -3 t55.5 -4.5t32.5 -7t15.5 -9t4 -11.5v-316q-2 -10 -27.5 -17t-68 -11t-89.5 -6.5t-103 -2.5h-95q-40 0 -80.5 0.5t-46.5 0.5v16q-3 3 -13.5 8t-11.5 8z" />
<glyph unicode="&#x22;" horiz-adv-x="1284" d="M180 842v598q0 24 10 44.5t24 25.5q28 0 83.5 -1t82.5 -1q40 4 72 4q148 0 148 -36v-10q12 -368 12 -566q0 -39 -15 -48.5t-61 -9.5h-356zM700 922v522q0 25 10 46.5t24 21.5h382v-32q12 -238 12 -584q0 -23 -4.5 -34.5t-19.5 -11.5h-116q-47 0 -133 -5.5t-123 -6.5v18 q-3 4 -10 12.5t-11 14.5t-7.5 16.5t-3.5 22.5z" />
<glyph unicode="#" horiz-adv-x="1548" d="M224 440q0 22 1 88t1 104q0 22 18 29t52 7h116v144h-29q-10 0 -27.5 1t-27 3.5t-20 6t-15.5 10t-5 15.5q0 37 2 113.5t2 116.5q0 36 114 36q18 0 43 -1.5t26 -1.5l47 336q4 44 32 53.5t126 9.5h68q35 0 53.5 -6t24.5 -24q-11 -63 -27 -189t-27 -189h98v150 q7 81 27.5 156.5t38.5 93.5h240q14 0 19.5 -1t10 -6t4.5 -17l-48 -374h122q24 -2 24 -72v-172q0 -42 -112 -42q-15 0 -31 1t-26.5 2t-12.5 1q-4 -27 -10 -79t-10 -79h148v-264q-3 -22 -22 -22q-26 0 -78 2t-80 2l-22 -182q-1 -12 -1 -48t-3.5 -62t-13 -55.5t-35.5 -46 t-67 -16.5q-5 0 -33.5 -1t-50.5 -1q-123 0 -130 38q6 44 20.5 166t25.5 194q-14 -2 -40 -2h-40l-32 -282q-2 -9 -4.5 -28t-4 -28t-6.5 -23.5t-12.5 -21t-21 -12t-31.5 -5.5q-78 0 -222 4l-30 46l48 348h-24q-83 0 -101.5 10.5t-18.5 65.5zM668 648q0 -28 20 -28h156l36 220 q-3 28 -28 28h-48q-32 4 -44 4h-44v-26q-6 -30 -24 -96.5t-24 -101.5z" />
<glyph unicode="$" horiz-adv-x="1444" d="M22 452q0 36 68 36h506q20 0 28.5 -24.5t12 -53.5t29.5 -53.5t76 -24.5q53 0 89.5 25.5t36.5 74.5q0 18 -9 31.5t-32 23t-40.5 15t-58 14.5t-60.5 14l-92 24q-285 69 -402.5 174.5t-117.5 293.5q0 77 16.5 142t42.5 112.5t66.5 86.5t81 64.5t93.5 46.5t96 33t96 23 q-2 18 -2 60v74v6q0 19 0.5 29t6 20.5t15.5 12.5h80q35 0 100 1t100 1q40 0 40 -100q0 -20 -2 -57t-2 -49q116 -9 200.5 -36t151 -80.5t108 -139t60.5 -208.5q-3 -16 -16 -16q-79 0 -234 -5t-234 -5q-33 0 -52 13t-26 31.5t-15 37t-29 31.5t-58 13q-6 -1 -22 -4t-23.5 -4.5 t-20.5 -5t-20 -8t-15 -11t-11.5 -15.5t-3.5 -20q0 -29 27.5 -48t60 -27t80 -17t68.5 -16l106 -26q175 -43 306 -114q94 -71 143 -172.5t49 -219.5q0 -98 -33 -178t-85 -133t-128.5 -94t-148.5 -64t-161 -41v-102q0 -12 4 -32v-36q-3 -36 -44 -36h-148q-100 4 -148 8 q-9 5 -20.5 18t-17.5 18q2 10 2 32v34q0 37 -3.5 58t-15.5 32.5t-20.5 14.5t-34.5 8t-42 9q-200 54 -293 172t-105 308z" />
<glyph unicode="%" horiz-adv-x="2152" d="M18 1020q0 141 53.5 256t160 185.5t248.5 70.5q99 0 176.5 -28.5t124.5 -74t77.5 -109t42 -128t11.5 -136.5q0 -88 -13.5 -163.5t-47 -145.5t-85 -119.5t-132 -78.5t-182.5 -29q-434 0 -434 500zM366 1013q0 -30 0.5 -48t3 -54t9.5 -59.5t18.5 -48.5t31 -38t45.5 -13 t44 15t26.5 34t13.5 50.5t5.5 48.5t0.5 44v164q0 39 -2.5 66t-11 58t-28 47.5t-50.5 16.5q-20 -1 -35.5 -9.5t-26.5 -25t-19 -32t-12.5 -42t-7.5 -43.5t-4 -46.5t-1 -40.5v-37v-7zM528 -14q92 168 253 461.5t295.5 539t253.5 461.5l46 82q13 13 16 14h64q36 0 76 -1.5 t64 -3.5t24 -3q-53 -102 -276 -540q-223 -397 -536 -1056q-13 -28 -128 -28q-26 0 -68 2t-56 2zM1236 434v26q8 106 38.5 194t84.5 157t138 108t191 39q66 0 126.5 -14.5t120.5 -50.5t103.5 -91.5t70.5 -144t27 -201.5q0 -126 -36 -225.5t-99 -162t-147.5 -95.5t-183.5 -33 q-105 0 -184.5 31t-126 78.5t-75 115.5t-38.5 132t-10 137zM1582 412q0 -238 110 -238q94 0 94 182q0 19 -1 58t-1 58v26q2 10 2 34q0 33 -4 61.5t-14 58t-31 47t-51 17.5t-51 -22t-31 -49t-15.5 -71.5t-6 -68t-0.5 -59.5v-34z" />
<glyph unicode="&#x26;" horiz-adv-x="1814" d="M16 376q0 294 360 428q-92 58 -152 151.5t-60 192.5q0 97 44 172t124 120.5t184.5 68.5t231.5 23q118 0 223 -19t198 -59.5t148 -115t55 -174.5q0 -115 -73 -210.5t-211 -189.5q52 -46 152 -140q14 20 22 54t12.5 59t26 44t61.5 19h118q24 0 76 -1t80 -1h46q14 2 44 2 q17 -3 24 -10.5t10 -25.5v-40q-11 -111 -60 -219t-132 -193l116 -116q9 -11 55 -53t77.5 -80t31.5 -63q0 -29 -38 -32h-334q-117 0 -179 14.5t-125 57.5h-40q-214 -97 -348 -108h-88q-197 0 -352.5 58t-241.5 159t-86 227zM520 400q0 -41 21 -74.5t54 -53t70.5 -30 t74.5 -10.5q102 0 220 64q-40 44 -120.5 118t-99.5 92l-54 50q-36 32 -42 32q-47 -22 -85.5 -77.5t-38.5 -110.5zM610 1144q8 -53 58.5 -103t107.5 -71q3 0 6 1t6 1l48 38q39 30 65.5 69t26.5 77q0 42 -29.5 70.5t-65.5 39t-73 10.5q-59 0 -104.5 -36t-45.5 -96z" />
<glyph unicode="'" horiz-adv-x="802" d="M178 872v568q0 22 11 43.5t27 24.5h66q9 0 54.5 2t85.5 2t84.5 -1.5t71 -10.5t26.5 -24q1 -55 4.5 -259.5t3.5 -314.5q0 -40 -57.5 -53t-166.5 -13h-172q-22 14 -38 36z" />
<glyph unicode="(" horiz-adv-x="832" d="M124 614q7 98 40.5 252.5t74 293t81 239.5t60.5 101q4 4 12 4q65 3 374 8q13 -1 19 -8t11 -24l-54 -204q-122 -409 -122 -674q11 -302 128 -678l56 -200q-12 -21 -18 -24v-24h-74q-56 0 -164 4t-164 4q-27 10 -80 150q-59 184 -62 194q-110 292 -118 586z" />
<glyph unicode=")" horiz-adv-x="834" d="M24 1484v40h408q27 0 44 -32l78 -214q73 -190 114.5 -356.5t41.5 -329.5q0 -135 -50 -324q-70 -223 -102 -322q-90 -249 -110 -254h-404q0 23 16 60q150 511 150 838q1 74 -8 157.5t-21 151t-35 158.5t-39 145.5t-44 148.5t-39 133z" />
<glyph unicode="*" horiz-adv-x="930" d="M76 1108v32q0 88 32 108q64 0 160 -4l-32 52v-2l-34 60q-18 40 -20 54q0 8 8 15.5t18.5 13t19.5 7.5l52 34q64 40 88 40q15 -3 52 -70v-38v2l52 -64v28q3 4 13 14t11 14v22q6 12 20.5 33t29.5 39t22 22l60 -28q44 -21 82 -45t38 -35q0 -5 -0.5 -9t-2.5 -9l-3 -8 q-1 -2 -4.5 -8t-4.5 -8t-5.5 -9.5t-5.5 -8.5l-28 -44q-17 -27 -36 -68h26q32 8 54 8h50q6 0 18.5 1t17.5 0.5t13 -4.5t11 -13t5.5 -26.5t2.5 -43.5q0 -25 -6 -58v-52q0 -11 -26 -15t-80 -8h-4q-2 0 -4.5 -0.5t-5.5 -0.5h-4h-58l34 -58q9 -12 12 -26v-32q45 -45 45 -58 l-191 -117l-94 157l-42 -80q-3 -6 -8 -15t-7.5 -14t-6 -11.5t-6 -10t-6 -8t-6 -7t-6 -4.5t-7 -3t-7.5 -1q-19 0 -106.5 49.5t-87.5 62.5q0 10 10 30l46 88l22 38q-7 0 -18 -0.5t-20 -0.5t-20 -0.5t-18 -0.5h-34q-12 2 -21 4t-16 4.5t-12 8t-9 9t-6 13.5t-3.5 16t-2 21.5 t-0.5 25.5z" />
<glyph unicode="+" horiz-adv-x="1270" d="M84 448v28q2 8 2 24q0 21 -1 62t-1 62q0 44 9.5 58t46.5 14h322v320q2 36 12 48t48 12h180q89 0 96 -28q0 -61 -1 -180t-1 -180h352q16 -1 22 -12t6 -34q0 -29 -1 -87t-1 -87v-34q0 -58 -14 -58h-370q4 -112 4 -168v-168q0 -32 -15 -42t-59 -10h-244v370q-8 0 -24 -1 t-24 -1q-12 0 -40 1t-44 1q-13 0 -38 -1t-38 -1q-25 0 -75 1t-75 1q-34 7 -34 90z" />
<glyph unicode="," horiz-adv-x="734" d="M-8 -206l80 370q24 112 51 196t41 84h356q149 0 149 -27l-193 -633q-11 -24 -222 -24h-230z" />
<glyph unicode="-" d="M36 360v282q0 102 32 102q378 0 572 2q48 0 72 -2h68q28 -5 28 -134v-214q-4 -36 -28 -36q-121 0 -356.5 -10t-351.5 -10v20h-36z" />
<glyph unicode="." horiz-adv-x="774" d="M112 14v30q0 15 1 47.5t1 52.5v52q0 244 32 244h410q96 0 96 -28q4 -192 4 -294v-34q0 -7 1 -21.5t1 -22.5q0 -56 -22 -56h-492z" />
<glyph unicode="/" horiz-adv-x="804" d="M-48 8q8 28 14 42q257 706 552 1482q6 16 94 16q31 0 78.5 -2t55.5 -2h34q32 0 46 -7t14 -27q0 -21 -11 -55.5t-29 -80.5t-24 -64q-251 -746 -308 -914l-112 -306q-5 -14 -12.5 -39t-11.5 -37.5t-15 -30t-25.5 -26.5t-39.5 -16.5t-60 -8.5h-40q-24 -4 -64 -4h-102 q-11 21 -34 80z" />
<glyph unicode="0" horiz-adv-x="1462" d="M20 736q0 759 700 814q121 0 221.5 -27.5t171.5 -73.5t126 -112.5t88 -138.5t54 -156.5t29 -161.5t8 -160q0 -190 -54.5 -339t-151 -244t-224.5 -144t-280 -49q-113 0 -205.5 21.5t-160.5 58.5t-120.5 94t-87 121.5t-58.5 148t-36.5 165.5t-19.5 183zM556 696 q0 -39 1 -69t4.5 -73.5t9.5 -76t17.5 -67.5t27.5 -58t40.5 -37.5t55.5 -14.5q35 0 62.5 15t45 36t29.5 58t18 65.5t9 75t3.5 70.5t0.5 67v13q4 34 4 106q0 5 0.5 40t0.5 56.5t-3 61.5t-8 66t-16.5 59t-27.5 52.5t-41 33t-57 13.5q-26 0 -48 -7t-38.5 -23.5t-29.5 -33.5 t-22 -46t-16 -51.5t-11 -60t-6.5 -61t-3.5 -66t-1 -62.5v-62v-19z" />
<glyph unicode="1" horiz-adv-x="1578" d="M196 816v144v33q0 163 9 198q9 34 43 56q10 6 37 19q31 17 51 28q43 18 90.5 41t120 73t101.5 96q240 -4 360 -4q52 0 78 4q8 -1 12.5 -5t6.5 -15t2.5 -21t0.5 -33v-534q0 -149 6 -445.5t6 -446.5q-5 -36 -144 -36q-20 0 -54 1t-46 1q-28 0 -79 -1t-75 -1q-62 0 -186 4 l-26 34q-10 10 -10 42q0 152 4 440v436q-147 -97 -274 -136q-17 0 -25 6t-9 22z" />
<glyph unicode="2" horiz-adv-x="1458" d="M60 1018q15 144 69 247.5t144 163.5t203 87.5t258 27.5q105 0 200 -16.5t181 -53t148.5 -90t99.5 -132.5t37 -176q0 -85 -24.5 -158t-62 -124t-94 -104t-109.5 -91.5t-120.5 -92.5t-115.5 -102q68 0 208.5 4t213.5 4q69 0 93.5 -46.5t24.5 -133.5q0 -27 -3 -91.5 t-3 -98.5v-18q0 -15 -2 -23t-11 -15t-27 -10h-72q-76 2 -324 8q-400 0 -874 -16v20q-15 9 -24.5 36t-9.5 60v292q0 23 68 68q275 186 394 270l62 48q216 168 216 300q0 42 -24.5 66t-65.5 24q-35 0 -55.5 -15.5t-28 -38t-12 -45.5t-13 -42t-25.5 -23h-464q-56 0 -56 30z" />
<glyph unicode="3" horiz-adv-x="1454" d="M16 448q0 32 32 32h476q18 0 26.5 -4t9.5 -18v-2q8 -64 35.5 -98t86.5 -34q53 0 83.5 31.5t30.5 80.5q0 40 -13.5 68.5t-32.5 43.5t-49 23.5t-54 10.5t-57 2h-44q-39 0 -53.5 23t-14.5 71v64q0 83 11 122.5t43 39.5h80q80 0 124 32.5t44 123.5q0 44 -25 73t-67 29 q-80 0 -96 -74v-40q-10 -42 -44 -56q-210 0 -378 8q-8 0 -25.5 -1t-26.5 -1q-78 0 -78 38q15 142 24 179q28 116 121 190q28 23 63 43q102 60 230.5 78t297.5 18q75 0 153 -16t155 -51t136.5 -84t96.5 -122t37 -159q0 -77 -20.5 -134.5t-59.5 -93.5t-79 -57.5t-95 -38.5 q155 -48 221.5 -133t66.5 -215q0 -92 -27 -167.5t-69.5 -126.5t-104 -89t-122.5 -59.5t-133 -34.5t-127 -17t-113 -4q-147 0 -262 25.5t-208 82t-146 157t-60 241.5z" />
<glyph unicode="4" horiz-adv-x="1432" d="M-8 248v300q0 26 7.5 58t15.5 55t27 60.5t27.5 52.5t32.5 55.5t26 44.5q57 91 184.5 303t195.5 319h752v-64q0 -93 -4 -277t-4 -277v-46q0 -32 2 -48v-8q0 -22 -2 -32v-36q0 -74 44 -74q13 0 42 1t42 1q33 0 42.5 -10.5t9.5 -49.5q0 -4 -4 -4q0 -5 1.5 -42.5t3 -92 t1.5 -101.5q0 -71 -6.5 -97.5t-27.5 -26.5h-140q4 -124 4 -180q0 -22 -1.5 -31.5t-10.5 -18t-28 -10.5h-194q-240 0 -324 -6l-34 42v218h-616q-6 0 -15.5 -1t-14.5 -0.5t-12 2t-12 7t-10 14.5zM406 602q1 -6 11.5 -15t12.5 -11q45 0 142.5 3t141.5 3q21 9 30 36v38 q-2 10 -2 36v24q1 23 1.5 62t0.5 76q0 286 -40 286v-16q-44 -77 -147 -243t-151 -253v-26z" />
<glyph unicode="5" horiz-adv-x="1468" d="M68 400q0 22 30.5 29t89.5 7h164q44 0 130 -3t134 -3q17 -2 25.5 -19t11.5 -36t16 -35t39 -16q100 0 100 168q0 36 -3 62.5t-12 55.5t-29.5 44.5t-51.5 15.5q-36 0 -52.5 -18t-17.5 -40t-11 -40t-35 -18h-444q-30 43 -30 122v746q0 25 1 37.5t6.5 29.5t16.5 29h1100 q21 0 39.5 -9t22.5 -25v-194v-20q0 -109 -5.5 -130.5t-36.5 -21.5q-216 0 -632 -4q-3 -30 -7 -91t-7 -91q50 36 128 56t154 20q222 0 356 -135.5t134 -348.5q0 -126 -39.5 -227t-104.5 -166t-153.5 -108.5t-181.5 -62t-193 -18.5q-67 0 -125.5 5t-122.5 18t-117 34.5 t-103.5 57t-87 82t-62.5 113.5t-34 148z" />
<glyph unicode="6" horiz-adv-x="1456" d="M44 752q0 237 86.5 417t252 282t389.5 105q136 0 238 -25.5t163 -65t100 -99.5t54.5 -118t20.5 -130q0 -18 -69 -28.5t-174.5 -12.5t-156.5 -2t-86 1q-40 0 -40 16v52q-9 18 -48 18q-162 0 -162 -262v-16q90 106 288 106q221 0 366.5 -135t145.5 -343 q0 -118 -37.5 -213.5t-98.5 -158t-143.5 -106t-168 -63t-176.5 -23.5q-373 0 -558.5 207.5t-185.5 596.5zM596 466q0 -82 41.5 -142t118.5 -60q50 0 85.5 20.5t53.5 55.5t25.5 71.5t7.5 78.5q-5 98 -41.5 150t-122.5 52q-50 0 -85 -18t-52 -51.5t-24 -70.5t-7 -86z" />
<glyph unicode="7" horiz-adv-x="1462" d="M68 1112v336q0 12 0.5 21t2.5 21t6 19.5t12 13t19 5.5q138 1 614 -8h610q42 0 42 -158q-2 -208 -11 -273t-55 -145q-129 -227 -214 -380q-112 -207 -290 -568q-5 -14 -11 -20t-21 -6q-32 0 -96 1t-96 1h-148q-252 0 -252 36q0 17 8 36q86 164 238.5 471.5t193.5 388.5 l84 166q-226 0 -340 -4h-230q-21 0 -34.5 8t-31.5 38z" />
<glyph unicode="8" horiz-adv-x="1450" d="M28 396q8 126 62 214t174 144q-190 86 -190 314q0 104 39.5 188t103 137t148 89t170 51t173.5 15q107 0 202.5 -17t179.5 -55t145 -93.5t96 -136.5t35 -180q0 -228 -206 -302q56 -28 97 -58t77 -73.5t55 -103t19 -133.5q0 -219 -179.5 -335.5t-540.5 -116.5 q-111 0 -202.5 14t-156.5 37.5t-115.5 59t-82 72.5t-53.5 85t-32.5 90.5t-17.5 93.5zM558 440q8 -76 49.5 -122t112.5 -46q74 0 115 45t41 115q0 188 -158 188q-70 0 -115 -52.5t-45 -127.5zM584 1048q0 -160 138 -160q67 0 99.5 47t32.5 117q0 160 -140 160 q-63 0 -96.5 -52t-33.5 -112z" />
<glyph unicode="9" horiz-adv-x="1456" d="M42 984q0 116 39.5 211t105.5 158t154 106t181 62t190 19q162 0 294 -56t219.5 -156.5t135 -240t47.5 -305.5q0 -376 -154 -590q-53 -79 -133.5 -133.5t-173 -80.5t-172 -36t-163.5 -10q-226 0 -364 120q-73 55 -108.5 146t-35.5 192l36 44h452q17 0 26.5 -14t9.5 -32 q3 -17 6 -25.5t10.5 -18.5t21 -14t34.5 -4q27 0 48 10t35 23.5t24.5 39t16 43.5t10 51t5.5 48t3 47q-107 -64 -250 -64q-82 0 -159 16t-148.5 52t-125 88t-85.5 130.5t-32 173.5zM520 988q8 -93 48.5 -142.5t123.5 -49.5q160 0 160 200q0 45 -6.5 80t-23 67.5t-49.5 50.5 t-81 18q-47 0 -82 -19.5t-54 -53t-27.5 -71t-8.5 -80.5z" />
<glyph unicode=":" horiz-adv-x="770" d="M106 52q0 162 10 362q0 30 212 30h84q14 -2 36 -2h80q108 0 120 -28v-410q-13 -36 -332 -36h-178l-30 42q0 8 -1 21t-1 21zM110 680v28q0 12 1 41.5t1 46.5v56q0 224 32 224h384q120 0 120 -30v-378v-5q0 -16 -0.5 -24t-6.5 -15.5t-17 -7.5h-480l-32 32q0 22 -2 32z" />
<glyph unicode=";" horiz-adv-x="732" d="M-8 -96q6 35 29 105.5t39 128.5v86q20 86 54 161t50 75h360q65 0 107.5 -7.5t42.5 -21.5l-203 -618q-12 -25 -237 -25q-38 0 -101.5 2t-84.5 2h-22q-18 12 -34 28v84zM126 664q0 6 2 8v100q0 284 32 284h42q47 0 142.5 2t147.5 2q174 0 174 -24q6 -136 6 -392 q0 -16 -0.5 -24t-2.5 -18t-7 -15t-14 -7h-484l-34 34q-4 32 -4 50z" />
<glyph unicode="&#x3c;" horiz-adv-x="1270" d="M78 454q0 13 1 39t1 39q0 9 -1 29t-1 29q0 72 38 110l1029 391q14 0 22 -13t10.5 -31.5t2.5 -46.5q0 -11 0.5 -33.5t0.5 -38.5t-0.5 -38.5t-1.5 -38.5t-3.5 -31.5t-6.5 -25.5t-9 -14l-648 -256q305 -120 612 -232q28 -10 38.5 -20t16 -37t5.5 -87v-13v-45q0 -15 -1 -39 t-3.5 -36.5t-6.5 -26t-11 -19t-16 -5.5q-8 0 -14 2q-453 182 -912 358q-5 2 -23.5 7.5t-25.5 8t-23 9t-23 12t-18 15.5t-16 20.5t-9 25t-4 32.5z" />
<glyph unicode="=" horiz-adv-x="1272" d="M80 206q0 5 1 16t1 16q0 11 1 35t1 35v52q0 64 22 96q116 0 369.5 -15t392.5 -13h36q84 0 244 8q9 0 14 -12.5t7 -39t2.5 -45t0.5 -53.5v-66q0 -7 1 -22.5t1 -23.5q0 -54 -32 -54h-1058q-4 44 -4 86zM84 636v224q0 38 6.5 57t25.5 19h96q157 0 468 -2t468 -2 q24 0 24 -156v-139l-1056 -37z" />
<glyph unicode="&#x3e;" horiz-adv-x="1268" d="M78 4q0 84 2 124v124q1 18 82 57t200 83l370 139q-56 24 -192 82t-237.5 98.5t-198.5 72.5q-12 7 -12 48v28q0 5 -1 38.5t-1 57.5q0 127 20 127l1054 -405q7 -3 11.5 -21.5t6.5 -53t2 -57.5v-64v-26q0 -38 -6 -59t-24 -21q-100 -41 -318.5 -135.5t-386.5 -162 t-327 -120.5z" />
<glyph unicode="?" horiz-adv-x="1120" d="M42 1074q0 63 1 183.5t1 184.5q0 40 83 66t169 33t170 7q260 -3 392 -72l42 -22q85 -54 130 -122v-28q20 -40 40 -109t22 -75q-9 -146 -60 -212q-38 -47 -86 -88.5t-86.5 -66.5t-73 -50t-54.5 -53t-22 -62q3 -15 5 -47.5t5 -48.5q0 -8 -4 -16t-8 -8h-150q-118 0 -354 -12 q-28 0 -28 80q0 60 19.5 112t49.5 87t66 71.5t68 66t57.5 71t33.5 86.5q-7 39 -35 52.5t-73 13.5q-135 -5 -274 -60zM170 34v26q0 24 2 36v100q-2 12 -2 42q0 108 30 130q35 -1 145 -4.5t173 -3.5q49 -2 75 -3t52 -4.5t36 -7.5t19 -12.5t10.5 -19t1.5 -27.5v-100 q0 -21 1 -61t1 -61v-60q-3 -20 -22 -20q-4 0 -4 4q-56 -1 -336 -16h-150l-30 36q0 20 -2 26z" />
<glyph unicode="@" horiz-adv-x="1670" d="M72 724q0 142 43.5 267t118.5 217.5t174.5 159.5t214 100.5t233.5 33.5q142 0 274 -41.5t235 -116t165 -189t62 -251.5q0 -149 -53.5 -285.5t-141.5 -219.5t-183 -83q-123 0 -186 164q-59 -72 -125 -108t-171 -36q-123 0 -215.5 89.5t-92.5 214.5v36q0 104 47.5 199 t143 158t217.5 63q132 0 212 -80l48 -72q14 46 38 142h122l-92 -507q0 -111 88 -111q94 40 135 137t41 211q0 115 -30 206t-81 150t-122.5 97.5t-149.5 54.5t-167 16q-122 0 -231 -41t-194.5 -118t-136 -199.5t-50.5 -273.5q0 -98 32.5 -186.5t90.5 -155t134.5 -115.5 t167 -74t185.5 -25q122 0 236 34l48 -146q-136 -52 -344 -52q-145 0 -280 56.5t-236.5 153.5t-162.5 234.5t-61 291.5zM632 692q0 -86 37.5 -135t94.5 -49q112 0 181 71.5t69 168.5q0 77 -46.5 120.5t-109.5 43.5q-97 0 -155 -62.5t-71 -157.5z" />
<glyph unicode="A" horiz-adv-x="1638" d="M-48 0q62 229 137 465t186.5 564.5t152.5 454.5q12 20 16 24h168q59 0 174 2t174 2h168q19 0 32 -1t28.5 -4.5t23.5 -12t8 -22.5l461 -1461q0 -20 -14.5 -27.5t-54.5 -7.5h-92q-40 0 -119 -1t-119 -1q-12 0 -48.5 -1.5t-61.5 -1t-55.5 3t-49 11t-23.5 22.5v66 q-10 50 -35 92t-53 42h-344l-52 -212q-11 -24 -112 -24h-80q-43 0 -128 -3t-128 -3h-28q-16 0 -50.5 -1t-53.5 -1q-8 8 -28 36zM646 607l28 -47h66q80 0 146.5 9.5t66.5 30.5l-129 576q-18 0 -48.5 -68t-49.5 -154z" />
<glyph unicode="B" horiz-adv-x="1570" d="M92 136v1346l864 30q80 0 150 -10t141.5 -37.5t122 -71t82.5 -115.5t32 -166q0 -125 -55 -202.5t-165 -137.5q129 -36 196.5 -124.5t67.5 -223.5q0 -100 -38 -179.5t-98 -129.5t-141 -83t-160.5 -46.5t-162.5 -13.5q-48 0 -144.5 2t-145.5 2q-278 0 -510 -8 q-33 53 -36 168zM666 1148q0 -45 3 -134t3 -134q0 -19 24 -22q14 2 48.5 6.5t54.5 7.5t48.5 14.5t44.5 27.5t28 46.5t12 71.5q0 152 -210 152q-42 -7 -49 -14q-7 -8 -7 -22zM684 386q0 -74 8 -74h32q39 0 67.5 2.5t61.5 12.5t53 27.5t34 49.5t14 76q0 25 -5 46t-16 36 t-21.5 26t-30 18.5t-32 12t-37.5 7.5t-36 4t-38 2.5t-34 1.5v-38q-1 -11 -10.5 -74t-9.5 -100v-36z" />
<glyph unicode="C" horiz-adv-x="1556" d="M40 796v88q10 146 68 262.5t141 188t190 119t208 66t201 18.5q161 0 284.5 -38.5t201.5 -108.5t122 -160.5t56 -202.5v-96q0 -32 -220 -32q-52 0 -144.5 2t-121.5 2q-5 0 -15 -1t-15 -1q-26 0 -39.5 21.5t-18 52.5t-11 62t-27 52.5t-56.5 21.5t-63 -12t-43 -37.5 t-26.5 -51.5t-15 -67.5t-6 -70t-2.5 -76t-2 -69.5q0 -12 -2 -44t-2 -52q0 -249 132 -256q36 0 59 26t31.5 58t19.5 67.5t24 48.5h544q33 -3 36 -40q-17 -150 -79 -265.5t-159 -188t-220.5 -109.5t-269.5 -37q-136 0 -248 29.5t-189 78.5t-136 119.5t-94 145t-56.5 163 t-29 165t-7.5 159.5z" />
<glyph unicode="D" horiz-adv-x="1648" d="M106 56v1412q0 11 12.5 19.5t36.5 13t48 7.5t57.5 4t55.5 1t50.5 -0.5t33.5 -0.5h112q33 0 92.5 2t87.5 2q477 0 682 -164l36 -32q17 -16 38 -41.5t51.5 -77t54.5 -111.5t41 -148t17 -182q0 -146 -40 -273t-109.5 -220t-163 -160.5t-202.5 -101t-225 -33.5h-32 q-43 0 -128 2t-128 2q-251 0 -454 -8q-24 48 -24 88zM654 768q0 -95 2 -202.5t11.5 -175t26.5 -70.5q60 0 108 13.5t81 35.5t58 56t39.5 70t23 82.5t11.5 88t3 92.5v62q0 184 -73 271.5t-255 92.5q-5 -11 -16 -30t-16 -30v-48q0 -11 -2 -112t-2 -196z" />
<glyph unicode="E" horiz-adv-x="1306" d="M92 36v38q0 171 4 505t4 505v414h1164v-328v-15v-16q0 -4 -1 -14.5t-3.5 -14.5t-7 -11.5t-10.5 -10.5t-16 -5.5t-22 -2.5h-28q-259 0 -472 8q-2 -16 -6.5 -49.5t-7 -59t-2.5 -49.5h476q30 0 40 -8t10 -26q0 -5 -1 -16t-1 -16q0 -48 3 -142t3 -142q-3 -20 -16 -20 q-6 0 -10 4q-316 -16 -468 -16h-26v-144q89 0 257.5 8t252.5 8q66 0 76 -28v-76q0 -48 2 -142t2 -142q0 -50 -40 -50q-52 0 -160 1t-164 1q-144 0 -412 -7.5t-388 -8.5l-28 32q-4 28 -4 36z" />
<glyph unicode="F" horiz-adv-x="1264" d="M100 78v12v20v30v1336q0 34 156 34q17 0 48.5 -1t43.5 -1q79 0 235.5 3t236.5 3q55 0 163.5 -2t168.5 -2q8 0 24 1t24 1q36 0 50 -13.5t14 -52.5v-350q-58 -5 -121 -6.5t-160 -2.5t-121 -1h-138q0 -19 -1 -55t-1 -55v-14q2 -4 2 -14q227 16 384 16q47 0 83.5 -7t36.5 -21 v-334q0 -44 -17 -59t-53 -15q-8 0 -29 2t-33 2q-203 -13 -370 -16q0 -61 3 -184t3 -184v-124q0 -29 -6 -38.5t-30 -13.5q-96 0 -284 -2t-284 -2q-8 12 -13.5 26t-8.5 25t-4.5 31t-1.5 28z" />
<glyph unicode="G" horiz-adv-x="1680" d="M42 748q0 138 31 253t82.5 195t124 142t149.5 99.5t165.5 61.5t165.5 32.5t156 8.5q58 0 113.5 -5t125 -17.5t130 -38.5t116 -63.5t96.5 -97t59 -134.5q5 -29 20 -164q-4 -30 -64 -30q-86 0 -250 4t-246 4q-12 4 -19 16t-9.5 26t-8 30t-14 28.5t-30 21t-53.5 8.5 q-42 0 -75 -14.5t-54 -35.5t-36 -57t-22.5 -65.5t-11.5 -75t-4.5 -71.5t-0.5 -69q0 -13 1 -32t1 -26v-30q0 -32 1 -53t5.5 -54t12.5 -55.5t23.5 -48t38 -41t56.5 -26t77 -10.5q111 0 182 22v122h-44v-2h-72q-8 0 -28.5 -1t-33.5 -1l-36 40v276q0 26 36 56h72q75 0 182 -2 t164 -2h80q58 0 90.5 -1t72.5 -9.5t53 -25.5q0 -131 -6 -382t-6 -364q0 -3 1 -9.5t1 -10.5v-22q-34 -40 -222 -70t-316 -30h-26q-28 0 -83 -4t-83 -4q-403 0 -616.5 215.5t-213.5 592.5z" />
<glyph unicode="H" horiz-adv-x="1654" d="M90 138q0 216 8 589.5t8 548.5q0 216 22 228h372q99 0 147.5 -11.5t64.5 -34.5t16 -70q0 -14 -2 -54.5t-2 -67.5v-46q0 -32 -3 -96t-3 -96v-20q2 -6 2 -16h40q17 0 52 -1t52 -1q46 0 68 6v416q0 50 5 71.5t14 27t33 5.5q13 0 42 -1t42 -1l74 3q75 3 134 3q272 0 272 -60 q0 -16 1 -46t1 -46q0 -35 -1 -102t-1 -102q0 -104 3 -310t3 -310q0 -9 -1 -22.5t-1 -17.5v-48q0 -64 2 -96v-22q-2 -4 -2 -12q0 -53 2 -161t2 -161q-7 -36 -192 -36h-416l-30 42v66q0 67 1 198t1 198q0 23 -5.5 31.5t-22.5 8.5h-36q-68 0 -124 -8q0 -83 -2 -249.5t-2 -250.5 q-12 -30 -250 -30h-118q-28 0 -65 -1.5t-57 -2.5t-45.5 0.5t-38.5 7t-27.5 16.5t-21 30t-11 47t-4.5 67z" />
<glyph unicode="I" horiz-adv-x="842" d="M82 -26q4 291 14 426q0 420 12 852q-4 84 -4 124v30q-4 44 -4 72q0 19 18 34q164 -12 500 -12q80 0 110 4v-1530h-646z" />
<glyph unicode="J" horiz-adv-x="1382" d="M-24 470q0 54 32 54h456q31 0 46 -15t18 -37t5.5 -44t15 -37t39.5 -15q25 0 40.5 13.5t22 40.5t8 47t1.5 51v8q-1 72 -5.5 278t-4.5 322v340q0 29 42 34q32 0 96 -1t96 -1q48 0 142 1t142 1h94q23 0 32 -28q-2 -18 -1.5 -49t-0.5 -49v-50q-10 -307 -10 -548v-314 q0 -88 -24 -163t-64 -128t-95.5 -95.5t-114.5 -68.5t-124.5 -43t-123 -23.5t-112.5 -6.5q-111 0 -202.5 14.5t-176 51t-142.5 94.5t-92.5 151t-34.5 215z" />
<glyph unicode="K" horiz-adv-x="1646" d="M100 6v1422q0 22 0.5 32t3.5 23.5t9.5 19t18.5 9.5t30 4h410q35 0 65.5 -3t54.5 -11.5t24 -21.5v-2q-4 -372 -4 -554l281 585l207 -1q424 0 424 -20q0 -4 -4 -4q-194 -350 -394 -696v-28l41 -26l418 -719q0 -16 -23 -35h-642l-286 558q-6 -55 -9 -160t-5 -138v-236 q-7 -36 -120 -36h-440q-17 0 -26.5 1.5t-16 8t-9 10.5t-8.5 18z" />
<glyph unicode="L" horiz-adv-x="1264" d="M102 1336q0 163 34 182q10 -2 28 -2h32q31 0 102 2t108 2q142 0 229.5 -11.5t98.5 -42.5l-12 -1032h22q71 4 104 4h8q32 0 117.5 -4t164.5 -4q65 0 96.5 -7.5t31.5 -30.5v-384q-13 -36 -446 -36h-692q-24 35 -24 112v284q0 125 2 370t2 370q0 23 -3 102t-3 126z" />
<glyph unicode="M" horiz-adv-x="2192" d="M122 -4v1484q0 9 4.5 15.5t14 10t18.5 5.5t23 2.5t23 0.5h10h13h18h118q285 0 401.5 -8t178.5 -8q24 -134 76 -398l76 -398l160 808l8 -2q8 -2 12 -2q107 0 316 3t316 3h148q28 -3 28 -56q22 -969 24 -1082q0 -18 2 -55.5t3 -71.5q1 -33 1 -75q0 -5 1 -11q1 -35 -3 -65 q-4 -33 -11 -62.5t-21.5 -45.5t-35.5 -16h-456q-48 37 -48 276q0 87 1 209.5t1 174.5v70q0 9 -1.5 34.5t-0.5 39.5q-40 -145 -98 -415t-80 -361q-10 -28 -92 -28h-354q-65 0 -76 34l-96 418q-13 64 -28.5 133t-36.5 157t-31 130q-12 -320 -12 -488v-176q0 -118 2 -178 q-6 -22 -22 -22h-94q-59 0 -173 -1t-173 -1q-54 0 -54 18z" />
<glyph unicode="N" horiz-adv-x="1726" d="M80 -4v452v54q0 264 16 892v82q0 22 8 26h688q10 0 40.5 -76t74 -195.5t61.5 -164.5l140 -366v388q0 50 2 184q2 95 2 160v48q0 28 160 28q50 0 137 -2t107 -2h76q16 0 16 -6q6 -278 6 -796v-694q-7 -26 -64 -26h-26q-52 0 -153 -2t-153 -2h-294q-14 5 -58 126 q-47 131 -140 379t-104 277q0 -59 -1 -176t-1 -176q0 -44 2 -132t2 -132v-126q0 -46 -40 -46h-460zM1608 1496v4v-4z" />
<glyph unicode="O" horiz-adv-x="1644" d="M24 752v110q10 140 61 255.5t129.5 194.5t181.5 133.5t215.5 79.5t232.5 25q66 0 137.5 -11t151.5 -35t153.5 -70.5t121.5 -109.5q99 -121 143.5 -253.5t44.5 -294.5v-13q0 -329 -148 -531l-44 -60q-58 -80 -166 -133.5t-216 -74t-218 -20.5q-129 0 -238 26t-188 70 t-141 107t-101.5 133t-65 152t-36 160t-10.5 160zM620 672q0 -46 3.5 -87.5t15 -88t30 -81t51 -58t74.5 -25.5q44 0 78 14.5t57 37t39 60.5t24.5 73t13 87t5.5 89.5t1 94.5q0 42 -2.5 78t-8.5 80t-20 77.5t-34 63t-52.5 45.5t-74.5 16q-41 0 -73.5 -19t-53 -46t-35.5 -72.5 t-22 -82t-11 -92t-4.5 -86t-0.5 -78.5z" />
<glyph unicode="P" horiz-adv-x="1526" d="M104 136v1332q0 7 6.5 12t20.5 7t24.5 3t30 1.5t26.5 0.5h812q100 0 189 -31.5t158 -91.5t109 -155t40 -214q0 -88 -20.5 -161t-54 -124.5t-82 -92.5t-99 -66t-111.5 -42.5t-112.5 -25.5t-108.5 -12h-192q-8 -157 -8 -352v-112q-3 -36 -34 -36h-568q-26 69 -26 160z M668 836l32 -44q41 0 78.5 6t73.5 21t62 38.5t42 60t16 82.5q0 35 -9.5 62.5t-23 45t-37 30.5t-44 19.5t-52 10t-52 4t-52.5 0.5q-34 -16 -34 -336z" />
<glyph unicode="Q" horiz-adv-x="1642" d="M40 748q0 170 46 307t123.5 228t183.5 152.5t221 88t242 26.5q174 0 316.5 -59t236 -161.5t144.5 -241.5t51 -300q0 -107 -31 -212t-87 -180q13 0 39 1t39 1q84 0 84 -62v-340q-1 -16 -10.5 -25t-29.5 -15q-79 14 -276 14q-103 0 -278.5 -19t-261.5 -19q-404 0 -596 312 q-80 80 -118 222t-38 282zM620 728q0 -42 0.5 -69t4 -74t10.5 -79t20.5 -70t33 -61t49.5 -39t68 -16v24q0 4 10 4q5 0 17 -2t17 -2q41 0 71.5 22.5t47.5 62.5t28 82.5t14 96t3 88.5q1 11 1 23q0 24 -1 51l-2 40q0 45 -2 80.5t-8 80t-19.5 77t-33 61.5t-52 44t-73.5 15 q-42 0 -76 -20t-55.5 -56t-36.5 -78.5t-22.5 -95t-10.5 -97t-3 -93.5z" />
<glyph unicode="R" horiz-adv-x="1560" d="M96 -16v1492q0 28 80 28h872q227 -6 345.5 -108t118.5 -288q0 -242 -244 -354q45 -14 81 -39t60 -53.5t42 -68.5t28 -75t17.5 -83t10.5 -83t7.5 -83.5t7.5 -76.5v-88q3 -16 18.5 -45t19.5 -43q0 -20 -8 -20q-22 -22 -92 -26q-28 -2 -62 -2q-50 0 -112 4q-103 6 -110 6 q-68 0 -98 2h-100q-22 7 -37 65.5t-29.5 168t-15.5 116.5q-4 99 -32 130.5t-102 31.5h-44v-488q-2 -12 -21 -20t-55 -10q-34 -4 -62 -4h-21q-22 0 -52 1q-45 1 -55 1h-144q-122 0 -184 -2q-14 6 -28 14zM712 1080q0 -46 0.5 -65.5t4 -59.5t12.5 -65.5t25 -41.5 q27 0 52.5 3.5t52 12t48 23t39 35t27 51t9.5 67.5q0 27 -9 48.5t-22.5 35t-35 23t-39.5 14.5t-43 7.5t-39 3t-34 0.5h-24q-15 -7 -19.5 -28t-4.5 -64z" />
<glyph unicode="S" horiz-adv-x="1484" d="M40 422q0 19 20 22q6 -2 20 -2q83 0 252 4t252 4q18 0 30 -10t17 -24.5t13.5 -31.5t19 -31.5t34.5 -24.5t58 -10q49 0 86.5 27.5t37.5 74.5q0 31 -32 57t-84.5 42.5t-100 28t-97.5 20t-58 10.5q-243 66 -349.5 164t-106.5 268q0 86 23 160t62.5 129t95.5 99.5t119.5 73.5 t136.5 48t145 27.5t146 8.5q281 0 448 -104q49 -49 74 -75.5t51 -60.5t38 -62.5t20.5 -65t12.5 -84.5l-36 -36q-205 -8 -460 -8q-32 0 -51.5 7t-26 18t-13 23t-12 23t-23 18t-46.5 7q-6 0 -18.5 -1.5t-31 -6t-35 -11.5t-28 -18.5t-11.5 -26.5q0 -18 13.5 -32.5t36.5 -24.5 t45 -16.5t47.5 -13t35.5 -9.5q21 -5 65 -16q83 -21 125.5 -32t116 -36t113 -47t91.5 -60t78.5 -81t45.5 -104t19 -134q0 -95 -24.5 -173t-64.5 -132t-100 -96t-121.5 -67t-139.5 -42t-143.5 -24.5t-142.5 -11.5q-118 5 -212 20.5t-181.5 50t-147 87t-99 134.5t-48.5 190z " />
<glyph unicode="T" horiz-adv-x="1318" d="M-16 1198q0 18 2 53.5t2 48.5q0 5 -2 36t-2 54q0 106 20 106q8 0 14 -2q209 0 619.5 5t614.5 5q51 0 64.5 -9t13.5 -35v-28q0 -52 1 -153.5t1 -154.5q0 -52 -28 -52q-56 0 -167 2t-167 2v-1072q-7 -30 -34 -32q-35 0 -102 1t-102 1q-2 0 -4 -2q-44 0 -123.5 1t-118.5 1 h-60q-20 -2 -58 -2l-40 48q0 152 10 452t10 452q0 7 -0.5 23t-0.5 26t-1.5 25t-5 24.5t-8.5 19t-13.5 14t-20.5 4.5h-286q-28 8 -28 138z" />
<glyph unicode="U" horiz-adv-x="1614" d="M92 498q4 492 4 734v12q0 7 -2 49.5t-2 72.5q0 120 20 136q5 0 15 -1t15 -1q168 8 390 8h136q8 -1 21.5 -6.5t18.5 -5.5q1 -49 4.5 -169t5.5 -208q1 -53 0 -105v-68v-390q0 -37 2 -60t9.5 -54t27 -46.5t49.5 -15.5q42 0 68 35.5t26 82.5v366v45q0 64 2 166q1 80 1 141 q0 48 -1 84v72q0 11 -2 33.5t-2 34.5v48q3 23 26 28q192 0 576 -4v-16h44q-8 -213 -8 -496v-224q0 -45 -2 -138t-2 -138q0 -130 -41 -230t-108 -161t-162 -100t-192 -54t-209 -15q-108 0 -202.5 13.5t-191.5 52t-167 98.5t-116 161t-51 233z" />
<glyph unicode="V" horiz-adv-x="1554" d="M-36 1475q0 29 34 29q97 0 283.5 2t278.5 2q28 0 48 -28l172 -996q16 96 57 270.5t53 231.5l100 500q8 24 410 24h160q19 -7 24 -34l-224 -810q-7 -27 -26.5 -119.5t-39 -177t-44.5 -176.5t-53.5 -152t-54.5 -69q-36 0 -107 3t-107 3h-72q-91 -8 -259.5 -10.5 t-206.5 -3.5z" />
<glyph unicode="W" horiz-adv-x="2130" d="M-44 1476q0 28 28 38q24 -2 76 -2h80q24 0 69 2t65 2h18h38q37 -2 48 -2h58q10 -2 30 -2h30q18 -5 36 -69t34 -176t26 -195.5t22.5 -202t12.5 -120.5l127 761q48 -4 76 -4h62q81 0 234.5 1t229.5 1q21 0 26 -16l125 -827q19 228 47 417l60 406q7 24 70 24h48 q12 1 37.5 -0.5t36.5 -1.5h88q37 0 83.5 -1t48.5 -1h118q9 0 12 -13t5 -40v-5l-322 -1472q-41 -2 -65 -2t-70 1t-66 1q-41 0 -124.5 1t-125.5 1q-5 0 -195 -6l-124 806q-4 -27 -15.5 -127t-25.5 -210t-31 -220.5t-39 -182.5t-44 -72q-43 0 -127 2t-127 2q-193 0 -356 -8 q-14 7 -24.5 22t-17 36t-10 37.5t-7 42t-5.5 34.5q-173 825 -214 1004z" />
<glyph unicode="X" horiz-adv-x="1600" d="M-36 0q0 28 36 84q85 130 243 378t185 290q-282 485 -428 724v10q0 11 12 20q64 0 190 -3t190 -3q17 1 47.5 -0.5t40.5 -1.5h70q22 2 70 2q13 -3 40 -49t54 -107l101 -238q3 6 107 230l38 80q38 84 52 84l12 -4q53 2 139.5 5t145.5 5t137.5 4t145.5 2q28 -6 28 -44v-12 q-353 -558 -450 -716l200 -307q50 -78 143 -223t119 -186v-20q0 -36 -62 -36q-81 0 -238 -2t-232 -2h-48q-53 0 -80 20l-183 387q-8 -19 -25.5 -60.5t-33 -78.5t-37.5 -82.5t-41.5 -80t-43.5 -62t-46 -37.5q-224 4 -328 4q-43 0 -123 -1t-123 -1q-24 9 -24 28z" />
<glyph unicode="Y" horiz-adv-x="1524" d="M-55 1471q0 13 21 24t42 11h252q52 0 156.5 -1t155.5 -1q19 -3 44 -51t52.5 -131.5t47.5 -149t44 -153.5t27 -97l183 586h564q14 -2 21 -11.5t13 -34.5q-63 -126 -235.5 -452.5t-260.5 -509.5v-500q-2 -9 -5 -14.5t-7.5 -9.5t-11 -6t-16.5 -2q-94 0 -279.5 -2t-284.5 -2 q-36 36 -36 84q4 22 5 50q1 14 1 32t-1 39q-1 43 -1 55v72q0 239 -100 430q-37 73 -109 226.5t-111 231.5z" />
<glyph unicode="Z" horiz-adv-x="1394" d="M14 16v32q0 86 3 203t7 117q1 -1 29 35t104.5 131t158.5 196l292 356q-91 0 -268 -3t-268 -3q-15 4 -19.5 15.5t-4.5 32.5v120q0 10 -4 72t-4 96q0 80 20 80q340 0 992 8h212q58 0 71 -10t13 -66q0 -14 -2 -35.5t-2 -24.5v-6q0 -87 -10.5 -155.5t-24 -113t-45 -92.5 t-55.5 -75.5t-75 -83t-84 -94.5l-290 -344h576q11 0 18 -15.5t10 -48.5t3.5 -56.5t0.5 -67.5v-92q0 -9 2 -35.5t2 -40.5q0 -46 -16 -59t-60 -13h-24q-196 0 -584.5 -6t-583.5 -6q-34 0 -49 9t-41 43z" />
<glyph unicode="[" horiz-adv-x="1034" d="M158 -162q0 16 1 49.5t1 50.5v26v148v158v146q0 119 0.5 158.5t1.5 145.5t2 158.5t2.5 146t4 158.5t5 146t6.5 155q0 26 52 26h620q78 0 102 -29.5t24 -112.5q0 -220 -22 -220q-12 0 -44 -1t-48 -1q-91 0 -214 10v-1092q44 0 129.5 2t130.5 2h38q34 -5 34 -156v-78 q0 -22 -2 -32q0 -6 1 -24t1 -28q0 -19 -2 -30t-11 -22.5t-27 -15.5q-123 0 -370 -4t-370 -4l-44 50q0 28 -2 44v70z" />
<glyph unicode="\" horiz-adv-x="808" d="M-36 1524q0 15 18 24q102 -6 206 -6q13 0 41.5 1.5t41.5 1.5l585 -1578q0 -15 -11.5 -25t-28.5 -12h-40q-13 0 -41 -1t-41 -1q-16 0 -53 1t-57 1q-62 0 -88 -6z" />
<glyph unicode="]" horiz-adv-x="1036" d="M50 1164v48q0 35 1 100t1 100q0 7 -1 21t-1 21q0 55 26 74h26q40 0 121 -2t121 -2q45 0 136 2t136 2q40 0 120 -6t120 -6q4 0 16 4q0 -30 2 -44v-48q0 -32 -1 -92t-1 -92v-30q1 -241 -9.5 -708t-10.5 -692v-76q0 -16 -7 -27t-20.5 -17t-28 -9.5t-35.5 -4t-37.5 -0.5 t-39.5 1t-36 1h-24q-45 1 -134.5 1t-133.5 1h-264q-12 3 -20 23t-11 62t-3.5 68t0 82.5t0.5 64.5q0 50 9.5 63t36.5 13h284v94q0 314 -12 974h-124q-28 0 -84 -2t-84 -2q-16 16 -34 40z" />
<glyph unicode="^" horiz-adv-x="1274" d="M138 759l365 760l263 1l380 -744q0 -29 -39 -38.5t-127 -9.5h-120q-7 0 -13.5 4.5t-13 12t-9.5 9.5l-188 390l-195 -408q-45 0 -139.5 2t-137.5 2q-6 1 -11 3t-8 5t-5 5.5t-2 5.5z" />
<glyph unicode="_" horiz-adv-x="1050" d="M-24 -194q0 38 6.5 55t27.5 17h212q90 0 298 1t296 1q167 0 193 -4q41 -7 50 -35q5 -17 5 -65q0 -44 -28 -44h-166q-403 0 -856 -22l-32 42q-6 48 -6 54z" />
<glyph unicode="`" horiz-adv-x="632" d="M-128 1756q0 20 24 32q230 -16 428 -16h40q13 -3 52 -64q78 -129 134 -216v-22q5 -7 17.5 -21t20.5 -24.5t8 -16.5q0 -12 -5.5 -19t-21 -9.5t-23 -3t-30.5 -0.5h-324q-48 58 -204 232l-42 44q-74 74 -74 104z" />
<glyph unicode="a" horiz-adv-x="1482" d="M-32 38v34q53 159 154.5 488t157.5 498v-2q34 97 100 304q12 20 20 28l540 -4q138 0 152 -24v-26q2 -9 22 -46q98 -297 142 -432v-12q5 -38 39.5 -117t39.5 -95l40 -144q35 -116 103 -310v2v-20q3 -14 15 -38t15 -34q0 -28 -11.5 -36t-44.5 -8h-464q-17 2 -22 3t-15.5 4 t-15 8t-5.5 13l-38 152q-4 19 -8 21.5t-24 2.5h-308q-6 -21 -11.5 -51t-9 -50t-12.5 -42.5t-22 -35.5t-37.5 -22t-59.5 -9h-432zM600 584h248q0 26 -18 94v22q-1 3 -3.5 7.5t-4.5 9t-2 7.5q-6 28 -17.5 90.5t-22.5 109t-24 86.5v48q-8 21 -28 30v-2q-12 -3 -25.5 -44 t-22.5 -90v-48q-2 -7 -9 -13t-7 -7q-33 -146 -54 -236q0 -10 -5 -35t-5 -29zM600 600v4v-4z" />
<glyph unicode="b" horiz-adv-x="1408" d="M88 44v1344h760q226 0 358 -96q58 -38 88 -110t30 -152q0 -102 -44.5 -164t-137.5 -118q51 0 94 -32t69 -80.5t40.5 -101t14.5 -98.5q-4 -122 -69.5 -212.5t-174.5 -129.5l-84 -50h-944zM584 371q0 -4 14 -9.5t24 -7.5h78q20 2 36.5 5t33.5 9t30 15t23 22t15.5 31.5 t5.5 41.5q0 29 -8 52.5t-19.5 38t-32.5 25t-36.5 15.5t-42.5 7.5t-41 3t-40 0.5zM604 1060q8 -45 8 -104v-20q0 -3 -1 -10t-1 -10t0.5 -8t0.5 -9.5t0.5 -11t0.5 -11.5v-32q0 -11 8 -14q22 0 34.5 0.5t37 3t40 7.5t35.5 15t31.5 24t19.5 36.5t8 51.5q0 34 -16.5 58.5 t-44.5 37t-58 17.5t-65 5q-4 -2 -22 -2v2q-16 -6 -16 -26z" />
<glyph unicode="c" horiz-adv-x="1390" d="M36 746v14q1 7 3.5 34.5t3 36t3.5 32.5t5 35t5.5 32t8 34.5t10.5 32.5t13 36t16 35v-2q46 96 116 166t154 108.5t172 56t186 17.5q124 0 224 -24.5t166 -65.5t113 -99.5t71 -120.5t34 -134v-86q-3 -14 -15 -21.5t-26 -9t-39 -1.5h-428v86q-5 34 -29 62t-59 28 q-31 0 -54.5 -13t-37 -34.5t-22 -50t-11 -60t-4 -64t0.5 -61.5v-29v-112q0 -25 2.5 -48.5t12 -60.5t33.5 -60t60 -23q38 0 56.5 32t31 77t28.5 61q40 0 120 -1t120 -1q28 0 83 1t83 1h74q33 0 36 -40v-38q-22 -199 -147 -321t-313 -155v-6q-67 -14 -168 -14 q-167 0 -300 56.5t-218 156.5t-129.5 233.5t-44.5 291.5z" />
<glyph unicode="d" horiz-adv-x="1456" d="M102 44v1328q3 0 11 -1t11 -1q43 0 130.5 9t131.5 9h256q137 0 246.5 -18t210 -64t167.5 -120t106.5 -192t39.5 -274q0 -114 -27 -212.5t-74 -169.5t-107.5 -126.5t-131.5 -90.5t-142 -54t-142 -23h-686zM606 356h48q51 0 90 16.5t62.5 47.5t39 65t22.5 80t9.5 80.5 t2.5 78.5v72q-1 7 -6 68t-22 104q-16 31 -35.5 53.5t-38.5 35t-44.5 19t-46.5 8.5t-51 2v-22h-30v-708z" />
<glyph unicode="e" horiz-adv-x="1166" d="M84 74v1218q0 60 5 70q9 14 29 14h24q16 0 22 -2h52q101 0 305.5 5t306.5 5h266q26 -3 26 -26v-334q-1 -6 -3.5 -10.5t-4 -6t-9.5 -7t-11 -8.5h-464v-124h44q58 0 177 4t183 4q28 0 38 -11t10 -31q0 -5 -2 -17t-2 -17v-38q0 -4 1 -16.5t1 -21.5v-28q0 -22 2 -44t2 -38 v-26q-5 -12 -8 -16t-10 -4v2q-37 0 -127.5 -5t-144.5 -5h-160v-128q8 0 24 -1t24 -1q45 0 133 3t127 3h128q52 0 66 -12q5 -6 8 -12v-320q0 -21 -8 -32t-30 -12h-990z" />
<glyph unicode="f" horiz-adv-x="1126" d="M88 84v1268q0 16 10 23.5t18.5 8t31.5 0.5h944q8 0 13 -2.5t8 -5t4 -8.5q2 -9 2 -12q0 -2 -1 -5v-7v-340h-468v-36q0 -12 4 -64h94q14 1 50.5 6.5t57.5 5.5h82q28 0 42 2q41 0 75 -10t37 -22v-58q0 -19 -2 -58.5t-2 -59.5v-90q2 -8 2 -28v-40q-4 -32 -62 -32h-64 q-34 0 -97.5 -2t-98.5 -2h-112v-476h-542z" />
<glyph unicode="g" horiz-adv-x="1502" d="M40 716q0 249 126 424l28 34v14v-2q180 230 594 230q60 0 130.5 -10.5t150 -33t150.5 -66.5t113 -102q21 -28 32 -62.5t20.5 -89t15.5 -80.5q0 -34 -64 -34h-82q-28 0 -114.5 3t-137.5 3h-110q-14 5 -25.5 31.5t-14.5 30.5v-2q-18 40 -80 40q-41 0 -71.5 -17.5t-46.5 -43 t-25.5 -64t-12 -70.5t-2.5 -73q0 -14 1 -39t1 -33v-76q0 -36 2.5 -63t12.5 -61t28 -56t52 -37t81 -15q98 0 154 18v44q0 8 -1 21t-1 21q0 2 1 10t1 14h-38q-8 0 -20 -1t-16 -1h-84l-34 38q-2 10 -2 30v62q0 12 1 37t1 41v28q0 2 1 9t1 13v8q0 18 7 29t27 23h94q10 0 30 -4 h90q100 -4 148 -4h96q152 0 180 -28q0 -96 -4 -292t-4 -292v-88q-8 -37 -135.5 -66.5t-254 -41.5t-200.5 -12q-78 0 -135.5 4t-137 17.5t-152.5 46t-137 82.5l-42 36q-17 12 -34 36l-32 42q-120 189 -120 440z" />
<glyph unicode="h" horiz-adv-x="1484" d="M81 92l6 1260q0 5 3 8.5t12 10t10 7.5h538v-430h174v440h510q24 0 35 -11t11 -43v-1230q0 -15 -1 -25t-3.5 -21t-9 -16.5t-16.5 -5.5h-510v22q-2 2 -9 5.5t-13.5 8t-9.5 8.5v404q0 22 -3.5 25t-28.5 3h-68q-24 0 -56 -4v-432q-4 -18 -15.5 -23t-34.5 -5h-46 q-47 0 -147.5 -2t-152.5 -2h-132q-43 0 -43 48z" />
<glyph unicode="i" horiz-adv-x="744" d="M72 38v1314q1 8 16 14.5t18 9.5h538v-1302q-5 -21 -9.5 -28.5t-14.5 -7.5h-548z" />
<glyph unicode="j" horiz-adv-x="1228" d="M-24 444v36q0 23 5 33.5t23 10.5h72q55 0 165 2t165 2q35 0 49 -18t13 -40t8.5 -40t35.5 -18q22 0 33.5 14t14 29.5t3.5 41t3 35.5v66q0 90 2 271t2 275v64q0 11 -1 30t-1 30v60q0 24 6 35.5t26 20.5h470q59 0 66 -28v-876q0 -88 -35 -164.5t-92 -129.5t-130 -91.5 t-149.5 -56.5t-149.5 -18h-32q-8 0 -24 -1t-24 -1q-274 0 -414 150v-2q-110 119 -110 278zM568 530v2q0 2 4 4v-6h-4z" />
<glyph unicode="k" horiz-adv-x="1470" d="M88 78v1314h442h16h11h9q7 0 19.5 -1t20.5 -3.5t16.5 -7t14 -12.5t7.5 -18v-444q33 66 92.5 190t87.5 180l49 105l95 3q20 0 60.5 -2t59.5 -2h76q8 0 23.5 1t22.5 1h58q4 0 14 2q162 0 162 -24q0 -1 -2 -7t-6.5 -15t-9.5 -16q-46 -73 -155 -266.5t-176 -291.5l391 -674 v-7v-8q0 -2 -0.5 -6.5t-1.5 -7t-2.5 -6t-3.5 -5.5l-6 -6q-94 6 -280 6q-25 0 -77 -1t-77 -1h-136v28q-16 27 -69 106t-77 124l-112 214v-444q-14 -40 -110 -40h-422q-18 30 -24 42z" />
<glyph unicode="l" horiz-adv-x="1126" d="M82 68v432q0 85 7 261t7 267q0 20 -4 85t-4 103q0 141 34 172q208 -4 310 -4h96q34 0 52 -2q2 2 10 2q2 0 17.5 -2t24.5 -2q25 -3 42 -42v-14q0 -11 -1 -32t-1 -32v-44q-1 -5 -12.5 -17.5t-11.5 -20.5v-730h424q16 0 24 -1t16 -9t8 -24v-334q-8 -40 -96 -40h-918 q-3 4 -9.5 9t-14.5 19z" />
<glyph unicode="m" horiz-adv-x="1972" d="M104 996v354q0 13 4 19.5t20 18.5h92q50 0 72 2q101 0 245.5 -9t180.5 -9h102q7 2 22.5 3.5t19.5 2.5l119 -609l156 611h703q28 0 28 -118v-1178q-2 -16 -9 -26t-20.5 -13.5t-21 -4t-25.5 -0.5q-63 0 -191.5 -2t-192.5 -2q-50 31 -50 230q0 50 2 130.5t2 119.5v88 q0 7 -1 22.5t-1 23.5q0 34 4 110v-76q-14 -59 -54 -180t-54 -180l-60 -256q-16 -28 -100 -28q-41 0 -106.5 2t-99.5 2q-10 0 -34 -1t-30 -1q-32 0 -46 8t-20 32q-94 417 -130 590l-36 172q-14 -291 -14 -616v-176h-472q0 6 3 26t3 22q-8 192 -8 474q0 85 -1 226.5t-1 195.5z M1364 766v2v-2z" />
<glyph unicode="n" horiz-adv-x="1548" d="M68 84q5 166 8 520t8 524v216q10 36 24 36v-4q68 0 213.5 4t218.5 4h168q1 0 3 -1q18 -7 20 -16l1 -7q36 -97 73 -201t88 -251.5t71 -203.5v148q20 352 20 500q0 16 22 20t68 4h342q10 -4 16 -27t8 -55q2 -30 2 -72q0 -10 1 -21q1 -31 -1 -55q-2 -34 -3 -67t-1 -43 q-2 -40 -2 -112v-106q0 -70 2 -192t2 -180v-364q-4 -34 -56 -34h-560q-8 2 -21 26t-25 58q-19 53 -63.5 174t-76.5 212.5t-58 177.5v6v-6q-3 -66 -6 -196.5t-6 -195.5v-204q0 -30 -7 -41.5t-37 -18.5h-412z" />
<glyph unicode="o" horiz-adv-x="1454" d="M18 746l3 27q6 50 9.5 77t12 74t20 80t29 73.5t43.5 77t59 69.5l24 24q48 56 146 96h38q44 18 101 33t102 23t119 20q56 0 117.5 -8.5t136.5 -28t144.5 -62t115.5 -101.5v-28q164 -205 164 -460q0 -287 -132 -468l-40 -50q-46 -57 -114.5 -98t-145.5 -62.5t-147.5 -30.5 t-140.5 -9q-103 0 -196.5 24.5t-175 76.5t-143.5 128t-100.5 183.5t-46.5 237.5v60zM570 716v-57.5t3.5 -63.5t9 -67.5t15.5 -61.5t23.5 -53t35 -35t47.5 -14q32 0 57 11.5t41.5 30t28.5 48t18 57t9.5 67t4.5 68.5t1 70v36q0 41 -3.5 79t-13 80.5t-25 73t-42 51t-60.5 20.5 q-150 0 -150 -296v-44z" />
<glyph unicode="p" horiz-adv-x="1366" d="M83 706q0 102 7.5 313t7.5 321q0 20 13.5 25.5t34 3.5t46.5 3h716q61 0 122 -15.5t119.5 -50t103 -84t72 -123.5t27.5 -163q0 -118 -50 -209.5t-150 -172.5q-123 -64 -296 -74h-32q-40 -8 -80 -8h-80q-6 0 -10 -2q0 -262 8 -396q-5 -20 -21.5 -27t-56.5 -7h-480zM604 786 q1 -1 5 -3t9 -3.5t8.5 -4t3.5 -3.5v-2q-2 0 -2 4q2 -2 12 -2q89 0 150.5 40t61.5 124q0 38 -13 65t-31.5 41.5t-50 22t-57.5 9.5t-66 2q-1 -1 -8 -7t-10 -9v-104q-12 -96 -12 -152v-18z" />
<glyph unicode="q" horiz-adv-x="1454" d="M36 724q0 335 234 552l58 46q32 26 68 38l76 24q31 11 107 23.5t133 12.5h40q154 0 279.5 -51t208.5 -140t127.5 -210.5t44.5 -262.5v-24q-10 -192 -102 -312h110l40 -34v-318q-9 -30 -34 -36q-12 0 -92 6t-132 6q-91 0 -257.5 -18t-256.5 -18q-146 0 -281 62l-152 76 l-29 46v20v-2l-30 34q-13 23 -28 38v26q-67 112 -99.5 211t-32.5 205zM564 722q0 -36 0.5 -53t1.5 -56t5 -61.5t10.5 -56.5t18 -54.5t27 -41t37.5 -30t50 -9.5q162 0 162 292v128q0 294 -166 294q-146 0 -146 -352z" />
<glyph unicode="r" horiz-adv-x="1402" d="M92 40v1336h186q86 0 275 4t283 4q67 0 126.5 -6.5t119.5 -21t107.5 -41t84.5 -62.5t57.5 -89.5t20.5 -119.5q0 -109 -51 -186t-157 -130q42 -18 73 -47t47.5 -50t32 -70.5t18.5 -65t13 -76.5q3 -14 4 -21q4 -40 34 -146.5t30 -163.5q0 -36 -22 -36q-60 0 -181.5 -1 t-180.5 -1q-24 2 -72 2h-68q-20 6 -39 62t-27 126l-22 178q-6 22 -9.5 31.5t-12.5 23t-24.5 18.5t-39.5 5h-46v-400v-10v-8v-8q0 -5 -1 -7.5t-2 -6.5t-3 -6l-4 -4q-2 -2 -5.5 -3t-8 -2t-10.5 -1h-526zM652 1022q0 -29 3 -87t3 -87q2 -2 6 -8.5t8 -10.5t8 -5q23 0 47 3.5 t51 13.5t47 26t33.5 43t13.5 62q0 24 -10 43t-29 29.5t-38 17.5t-45 10t-41.5 3.5t-36.5 0.5q-20 -5 -20 -16v-38z" />
<glyph unicode="s" horiz-adv-x="1314" d="M28 452q0 24 22 24q6 0 18 -1t18 -1h102q14 2 40 2h26q8 0 14 -2q58 2 198 2h46q20 0 31 -12t17.5 -29.5t15 -35t30.5 -29.5t58 -12q39 0 70.5 20.5t31.5 59.5q0 18 -17 34t-51 29t-60.5 21t-71.5 19t-58 15h-60q-217 64 -312.5 162.5t-95.5 249.5q0 100 37.5 180t99 131 t144.5 85.5t169 49t178 14.5q163 0 302.5 -54.5t211.5 -141.5q26 -26 42 -66t20.5 -63.5t11.5 -78.5l-28 -40h-170q-28 0 -93 2t-101 2q-27 0 -44 8t-27 20t-22.5 24t-39.5 20t-69 8q-13 0 -31.5 -2.5t-40.5 -13.5t-22 -28q0 -25 27.5 -39t71 -23t56.5 -16l147 -36 q65 -18 117 -38t110.5 -54.5t97.5 -76.5t65 -105.5t26 -139.5q0 -92 -24 -164v2q-21 -64 -59 -114.5t-90 -84t-105 -56t-122.5 -36t-124 -20t-125.5 -11.5q-315 16 -422 100v12q-91 68 -134.5 148t-51.5 180z" />
<glyph unicode="t" horiz-adv-x="1168" d="M-12 1012v360h1164q16 -3 20 -12.5t4 -27.5v-320q-2 -24 -28 -24h-284v-920q0 -1 -1 -5t-1 -5t-1 -4t-2 -4t-2 -3.5t-2.5 -3t-4 -2t-5 -2.5t-6 -1.5t-7.5 -1.5h-64q-128 0 -128 8q-8 0 -24 -1t-24 -1h-80q-23 0 -65.5 -1t-66.5 -1h-56l-40 28v216q1 58 8.5 248t7.5 300 v26q0 8 1 25t1 25q0 9 -1 36.5t-1 35.5h-250q-22 0 -42 7.5t-20 24.5z" />
<glyph unicode="u" horiz-adv-x="1450" d="M80 502q1 35 1 87q0 26 -0.5 57t-0.5 60q0 58 1 108q1 76 5 146v28q0 5 1 16t1 16q0 15 -2 45t-2 45v34v-2q-4 20 -4 114q0 108 20 128h544v-840q0 -130 76 -130q32 0 53 28.5t21 67.5v148q6 438 6 442q0 174 -4 252q0 28 28 40h556v-156q-13 -379 -16 -488v-62 q0 -12 -1 -32t-1 -28q0 -34 2 -48v-78q0 -139 -28 -200v-4q-32 -75 -92 -129.5t-137 -85t-158 -44t-171 -13.5q-28 0 -42 6h-24q0 -10 -30 -10v-2h-4q-27 0 -124 10h-46q-63 7 -121.5 28t-113.5 59.5t-96.5 91.5t-67.5 129t-29 166z" />
<glyph unicode="v" horiz-adv-x="1392" d="M-31 1346q0 23 33 30v4q60 0 181.5 2t176.5 2h164q7 0 9.5 -2.5t6 -10t9.5 -13.5l143 -830l88 242l-16 110q7 38 38.5 145.5t37.5 170.5v70q0 2 2 17l4 18q0 3 2.5 15.5t5 16.5t7 13t9.5 12.5t12.5 8.5t17 7t20.5 2h456q2 -1 12 -8t16.5 -12t7.5 -8l-335 -1205 q-7 -26 -16 -47.5t-22 -36.5t-27 -15h-684q-19 77 -58 238t-58 238z" />
<glyph unicode="w" horiz-adv-x="1906" d="M-26 1279l6 71v8v8q0 2 1 6t3 6t6 5t10 5q28 -4 42 -4h66q20 0 20 4h34q4 0 14.5 1t19.5 1h28q11 0 32 1t32 1h66v-4h66q32 0 48.5 -9.5t17.5 -38.5l73 -635q23 94 40 202t37 260t28 209h576q7 -55 24.5 -200.5t27.5 -219.5l43 -283l81 688q2 6 7.5 10t15.5 6.5t19 4 t24.5 2t24.5 0.5h26h23q32 0 92 -2t92 -2q4 0 21 1t27 1q38 0 44 -6q5 0 17.5 1t18.5 1q23 0 38 -10.5t20 -39.5l-291 -1276h-585l-111 642l-69 -530l-6 -33q-4 -27 -6.5 -37t-8.5 -27t-15 -24t-22 -7q-37 0 -110 3t-110 3q-64 0 -168 -3t-152 -3h-32z" />
<glyph unicode="x" horiz-adv-x="1416" d="M-44 80l416 644l-369 584l13 34q-1 1 -9.5 6t-8.5 8q0 13 20 24h54q118 0 180 2h60q59 0 116 -6h40q9 0 28 -1t28 -1q5 0 14 1t14 1q12 -3 19 -12.5t13 -26.5t8 -21q5 -11 24 -53.5t28 -66.5v2q7 -13 18.5 -37.5t15.5 -32.5l34 -70q3 -5 4 -9t4 -9q10 24 90 196l34 68 q34 68 48 68h484q13 -5 26 -6.5t17 -3t6.5 -9.5t2.5 -27l-44 -66q-70 -101 -190.5 -291.5t-159.5 -250.5l408 -638q0 -22 -15.5 -30t-44.5 -8h-530q-22 45 -77.5 165t-86.5 181q-8 -16 -38.5 -84t-51.5 -110.5t-51.5 -90t-54.5 -61.5q-36 0 -104.5 1t-103.5 1h-36 q-23 0 -77.5 2t-82.5 2h-96q-36 12 -36 32z" />
<glyph unicode="y" horiz-adv-x="1366" d="M-32 1352q0 28 48 28h529l157 -494q76 203 142 406q2 8 7 19.5t10 23.5t7 23q8 24 108 24q7 0 19.5 -1t20.5 -1q164 2 352 4q24 -3 34 -49l-454 -822l16 -67q0 -58 2 -177t2 -165v-30q-4 -14 -15.5 -23t-32 -11.5t-36.5 -3.5h-11q-13 0 -33 1q-28 1 -38 1h-382l-32 42 v418l-231 493l-107 150q-82 164 -82 211z" />
<glyph unicode="z" horiz-adv-x="1242" d="M8 84v62q0 8 1 29t1 33v52q0 130 10 140q136 157 408 496l85 99q-15 1 -61 1h-85q-119 -2 -151 -2h-26q-11 0 -33 -1t-33 -1h-64q-24 12 -24 34v346h1108q18 0 24 -0.5t14 -6t10 -17.5t2 -34q0 -12 -2 -29t-2 -21l4 -12q0 -37 -0.5 -72t-1.5 -59t-2 -42t-1.5 -28 t-0.5 -11q-8 -21 -8 -24v-16q-74 -85 -213.5 -241t-194.5 -219l-44 -56l-48 -52h500q32 0 32 -80v-260q0 -30 -13 -41t-43 -11h-1118q-6 6 -17.5 21.5t-12.5 22.5z" />
<glyph unicode="{" horiz-adv-x="1032" d="M42 706q0 68 26 80q32 0 56 3t51 11t42.5 27t18.5 47v288q0 67 14 120.5t36 89t58 62t70 40.5t83 23t86 11.5t89 3.5h216l36 -34q0 -56 -1 -164t-1 -164q-6 -32 -38 -32q-11 0 -33 1t-31 1q-46 0 -68.5 -19.5t-23.5 -76.5v-236q0 -127 -164 -196h34q74 -34 99 -98 t25 -190v-36q0 -13 -1 -36t-1 -36q0 -41 3.5 -62.5t16.5 -40t39.5 -25t72.5 -6.5q52 0 60 -22v-144q0 -199 -28 -208h-180q-76 0 -137 6t-124.5 24.5t-105.5 49t-68 83.5t-25 125q-3 60 -4 121t-1 96.5t-0.5 71t-3.5 53.5t-8 35.5t-16.5 25t-26.5 13t-40 8.5q-12 2 -28 4 t-26.5 3.5t-21 4t-15.5 7.5t-5 13q0 46 -3 135t-3 139z" />
<glyph unicode="|" horiz-adv-x="492" d="M70 -40q0 245 9 759.5t9 760.5v28q0 19 8.5 29t21 11t27 1.5t27.5 0.5h138h28q15 0 28 -0.5t21.5 -8.5t8.5 -25v-382q8 -564 16 -846v-328q-11 -40 -104 -40h-60q-112 0 -146 6z" />
<glyph unicode="}" horiz-adv-x="1034" d="M86 -276q1 35 2.5 98t2.5 115t1 99q0 29 30 32h56q51 0 78.5 21.5t27.5 82.5q0 9 -1 58t-1 82q5 139 39 197.5t131 86.5q-96 28 -129 81t-33 175q-1 18 0.5 50t1.5 42v76q0 61 -28.5 82.5t-113.5 21.5q-27 0 -38.5 4.5t-11.5 19.5q0 29 1 90t1 90q0 20 -2 34v42 q0 76 20 92q40 -4 62 -4q4 0 12.5 1t13.5 1q4 0 22 -1t22 -1q0 2 12 2h72h11q55 0 84.5 -1t82.5 -8t83 -21t69 -42.5t59.5 -69t35.5 -104t15 -144.5v-44q0 -38 -3 -98.5t-3 -81.5q0 -32 13.5 -52.5t39.5 -29.5t48 -11.5t53 -2.5q42 -11 42 -34q0 -24 -1 -75t-1 -79t1 -83 t1 -83q-2 -17 -22.5 -23.5t-48 -7.5t-54.5 -4.5t-46 -21.5t-19 -51q0 -36 2 -54v-64q0 -18 3 -58t3 -62q0 -97 -19 -170t-49.5 -117t-76.5 -71t-94 -36.5t-107 -9.5h-318z" />
<glyph unicode="~" horiz-adv-x="1302" d="M144 560q56 101 123 151.5t157 50.5q51 0 104.5 -23.5t94 -51.5t105.5 -51.5t136 -23.5q41 0 71.5 21t60.5 61l32 42v34v-22q8 4 22 4q17 0 55.5 -106t38.5 -148v-8q-4 -4 -4 -10q-65 -88 -126.5 -132t-145.5 -44q-54 0 -102 16l-116 50q-5 2 -23.5 11.5t-24.5 12.5 t-22.5 10.5t-25.5 10.5t-24.5 8t-27.5 7t-27.5 4t-30.5 2q-55 0 -91 -31.5t-71 -92.5h-34q-8 1 -20 6t-16 6l-40 114q-30 80 -28 122z" />
<glyph unicode="&#xa2;" horiz-adv-x="1496" d="M132 536q0 408 468 546q0 37 -1 104.5t-1 99.5q3 27 22 30h312q-2 -36 -2 -124v-32q0 -52 -2 -78q176 -8 284.5 -112.5t131.5 -307.5q0 -22 -128 -22q-19 0 -50 1t-38 1q-35 0 -103.5 -1t-104.5 -1t-50 6.5t-14 27.5q0 126 -74 126q-36 0 -61 -26t-36.5 -68.5t-16 -80 t-4.5 -77.5v-44q0 -38 2 -56v-56q0 -24 3.5 -45.5t13 -44.5t29.5 -36.5t48 -13.5q43 0 69.5 22.5t34 48.5t12.5 55t8 34q150 -2 446 -2q21 -3 30 -30q-7 -96 -39.5 -168.5t-90 -121.5t-122.5 -80.5t-156 -57.5q4 -112 4 -172q0 -29 -8.5 -42.5t-31.5 -13.5h-70q-36 0 -108 2 t-108 2l-38 42v176h-66q-196 53 -295 207.5t-99 382.5z" />
<glyph unicode="&#xa3;" horiz-adv-x="1440" d="M6 624q0 28 1 77t1 73q0 8 -1 31t-1 35q0 64 30 68h162q0 16 -1 51.5t-1 52.5q0 109 32.5 198.5t89 151t136 103.5t172.5 61.5t198 19.5q99 0 185.5 -16t162.5 -52.5t130 -90.5t85 -134.5t31 -180.5q0 -18 -2.5 -27t-6 -11t-13.5 -6q-136 0 -420 4q-41 2 -61.5 14t-25 28 t-7.5 31.5t-17 26t-45 10.5q-80 -8 -80 -134q0 -22 2 -57.5t2 -50.5h294q0 -43 1 -132t1 -132q0 -19 -6.5 -29.5t-27.5 -10.5h-166q-28 0 -46.5 -2.5t-30 -10t-16.5 -15.5t-6.5 -25.5t-0.5 -32.5t2.5 -44.5t1.5 -53.5q212 4 308 4h52q44 0 132 4t132 4q21 -4 26.5 -19.5 t5.5 -50.5v-28q0 -48 2 -146t2 -146q0 -38 -21.5 -50t-58.5 -12h-1252l-28 28q0 24 -4 68v64q0 19 -2 68t-2 80q0 98 34 112h120v194q-13 0 -37 1t-37 1q-16 -4 -48 -4q-25 0 -43.5 10t-18.5 30z" />
<glyph unicode="&#xa5;" horiz-adv-x="1456" d="M-49 1475q0 15 69 26t140 11h66l54 1q53 1 94 1q178 0 194 -30q14 -44 42 -130t42 -130l28 -88q5 -15 67 -196l157 488q18 51 58.5 65.5t153.5 14.5h302q16 0 25 -0.5t22.5 -3.5t20 -10t6.5 -18q-21 -39 -65 -114t-65 -114l-164 -417l42 -7q9 0 28.5 2t27.5 2 q32 -7 32 -68q0 -11 0.5 -31t1 -35t0 -35t-2.5 -34t-5.5 -27.5t-10 -21t-15.5 -8.5h-234q-17 -58 -34 -160q70 6 194 6q71 0 91.5 -13.5t20.5 -56.5q0 -8 -1 -24t-1 -24v-78q0 -47 -13.5 -60.5t-50.5 -13.5h-248v-144q-3 -15 -19.5 -23.5t-44 -11t-52.5 -3t-57.5 0.5 t-46.5 1h-354l-30 48v32q2 6 2 20q0 13 -1 38t-1 38h-24l-168 -8q-56 0 -80 9.5t-28 34.5q0 21 1 58t1 58q0 7 -1 25.5t-1 30.5q0 64 52 64h96q18 1 52 -0.5t46 -1.5h46v4q0 15 2 39.5t3 42t0.5 35.5t-6 27.5t-15.5 9.5q-16 0 -67.5 -3t-78.5 -1h-96q-30 7 -30 104v104 q0 25 11 37t23.5 13.5t40.5 1.5h9q38 0 60 -2v74z" />
<glyph unicode="&#xa9;" horiz-adv-x="1646" d="M8 734q0 149 42.5 278t118 224.5t176.5 164t220 103t247 34.5q161 0 309.5 -61t260.5 -167t179 -259t67 -327q0 -153 -66 -298t-175 -252.5t-256.5 -172.5t-302.5 -65q-229 0 -440 124q-84 49 -149 114.5t-104.5 131.5t-67 144.5t-40 144t-19.5 139.5zM250 746 q0 -149 75 -280.5t203.5 -210.5t277.5 -79q113 0 217.5 45.5t182 123.5t124 188.5t46.5 234.5q0 147 -76 270t-201.5 193t-270.5 73q-118 0 -221 -46t-175 -124t-118.5 -177.5t-63.5 -210.5zM392 748q0 100 39 185.5t103 141.5t144.5 87.5t165.5 31.5q154 0 246 -87.5 t126 -234.5q0 -32 -68 -32h-170q-22 9 -36.5 30.5t-21 40t-28 33t-58.5 14.5q-46 0 -79 -21t-50.5 -55t-25 -70t-7.5 -74q0 -84 37.5 -143t112.5 -59q30 0 49.5 9.5t28 23.5t19 31t21.5 31t36 23.5t62 9.5h116q21 0 34.5 -2t24.5 -11.5t11 -26.5q-24 -155 -126.5 -248.5 t-245.5 -93.5q-95 0 -173.5 27t-130.5 72t-88 105.5t-52 126t-16 135.5z" />
<glyph unicode="&#xad;" d="M36 360v282q0 102 32 102q378 0 572 2q48 0 72 -2h68q28 -5 28 -134v-214q-4 -36 -28 -36q-121 0 -356.5 -10t-351.5 -10v20h-36z" />
<glyph unicode="&#xae;" horiz-adv-x="1710" d="M50 736q0 152 49 284.5t130 226t185.5 160.5t216 99t221.5 32q163 0 311.5 -60t260 -165t178 -258.5t66.5 -330.5q0 -160 -64.5 -306.5t-173 -251.5t-256 -167.5t-306.5 -62.5q-118 0 -242.5 37t-233.5 107q-79 51 -139 118t-95.5 131t-59 141.5t-33 136.5t-15.5 129z M308 752q0 -111 37.5 -212.5t105.5 -178.5t170 -123t223 -46q161 0 289 75.5t198.5 209t70.5 299.5q0 158 -76 279t-198.5 183t-269.5 62q-235 0 -392.5 -153t-157.5 -395zM588 378v736q264 6 278 6q124 0 203 -50.5t79 -151.5q0 -67 -19.5 -114t-50 -67.5t-55 -28.5 t-47.5 -8l153 -285l-5 -37q-1 0 -21 -1.5t-49.5 -3t-53.5 -1.5l-161 313l-103 -1v-72q0 -118 -4 -172v-56q0 -8 -48 -8q-8 0 -40 1t-56 1zM736 816q14 0 65 -2t83 -2q57 0 88.5 17.5t31.5 66.5q0 62 -37 79t-127 17q-36 0 -52 -2h-52v-174z" />
<glyph unicode="&#xb4;" horiz-adv-x="640" d="M28 1402l216 367l192 -5q8 -1 49 -2t83 -2.5t86.5 -5t72.5 -10t28 -14.5l-271 -304q-17 -19 -32.5 -31t-27 -19t-31.5 -10.5t-31.5 -4t-43 -1.5t-50.5 -2h-216z" />
<glyph unicode="&#x2000;" horiz-adv-x="894" />
<glyph unicode="&#x2001;" horiz-adv-x="1788" />
<glyph unicode="&#x2002;" horiz-adv-x="894" />
<glyph unicode="&#x2003;" horiz-adv-x="1788" />
<glyph unicode="&#x2004;" horiz-adv-x="596" />
<glyph unicode="&#x2005;" horiz-adv-x="447" />
<glyph unicode="&#x2006;" horiz-adv-x="298" />
<glyph unicode="&#x2007;" horiz-adv-x="298" />
<glyph unicode="&#x2008;" horiz-adv-x="223" />
<glyph unicode="&#x2009;" horiz-adv-x="357" />
<glyph unicode="&#x200a;" horiz-adv-x="99" />
<glyph unicode="&#x2010;" d="M36 360v282q0 102 32 102q378 0 572 2q48 0 72 -2h68q28 -5 28 -134v-214q-4 -36 -28 -36q-121 0 -356.5 -10t-351.5 -10v20h-36z" />
<glyph unicode="&#x2011;" d="M36 360v282q0 102 32 102q378 0 572 2q48 0 72 -2h68q28 -5 28 -134v-214q-4 -36 -28 -36q-121 0 -356.5 -10t-351.5 -10v20h-36z" />
<glyph unicode="&#x2012;" d="M36 360v282q0 102 32 102q378 0 572 2q48 0 72 -2h68q28 -5 28 -134v-214q-4 -36 -28 -36q-121 0 -356.5 -10t-351.5 -10v20h-36z" />
<glyph unicode="&#x2013;" horiz-adv-x="1054" d="M-24 420v152q0 176 34 176q72 0 211 -2t207 -2h236q26 1 108 1.5t128 2.5h44q7 0 25.5 2t30.5 2q30 0 47.5 -24.5t22 -69.5t4.5 -84.5t-3 -93.5t-3 -72q0 -44 -32 -44h-198q-135 0 -410.5 -10t-415.5 -10q-3 3 -10 9.5t-9 9t-6.5 9t-6 12t-3 15t-1.5 21.5z" />
<glyph unicode="&#x2014;" horiz-adv-x="2046" d="M-20 640q0 100 16 100h2040q16 -4 20 -12t4 -24q-1 -32 -2 -90t-2 -88v-140q-3 -14 -32 -18q-230 6 -682 6q-674 -3 -1182 -24h-148l-30 42q0 39 -1 121t-1 127z" />
<glyph unicode="&#x2018;" horiz-adv-x="726" d="M22 900l224 600q8 9 45.5 11.5t140.5 2.5q45 0 88 -2t83 -6t64 -11.5t24 -17.5l-101 -417q-42 -214 -78 -214q-90 -6 -264 -6h-196z" />
<glyph unicode="&#x2019;" horiz-adv-x="724" d="M20 856l98 424q3 11 8 31q9 40 14 58.5t13.5 46.5t15 40.5t16.5 27t22 19.5t27 5h286q168 0 168 -28v-8q-2 0 -2 -4q-130 -370 -158 -454l-56 -148q-13 -26 -204 -26h-88q-8 0 -24.5 -1t-25.5 -1q-26 0 -40 2h-38v16h-32z" />
<glyph unicode="&#x201c;" horiz-adv-x="1212" d="M-12 890l144 394v60q16 49 52 105t50 59h154q261 0 261 -22l-94 -390l9 -88q-8 -40 -24 -78.5t-30.5 -60t-21.5 -21.5h-476zM638 882l233 640q30 -2 94 -7t115 -8t94 -3q70 0 106 2q5 0 8 -1.5t4.5 -5t2 -7.5t1.5 -12.5t2 -15.5l-68 -289q-13 -70 -21 -109t-22.5 -99 t-29 -89t-29.5 -30q-204 -8 -300 -8q-28 0 -80.5 1t-79.5 1z" />
<glyph unicode="&#x201d;" horiz-adv-x="1216" d="M-16 884q4 17 22.5 101t37.5 164t42 167t44.5 140.5t37.5 53.5h485l-220 -658h-417zM640 872l48 184q8 29 29.5 141t45.5 192t57 125q58 -2 178 -2h62q248 0 248 -36v-8q-22 -62 -62 -174.5t-72.5 -205t-61.5 -174.5v-54q-15 -28 -264 -28q-30 0 -78.5 1t-65.5 1h-28 q-20 13 -36 38z" />
<glyph unicode="&#x2022;" horiz-adv-x="1142" d="M156 730v4q9 77 37 146t76.5 128t125 93.5t171.5 34.5q107 0 201 -51.5t152.5 -144.5t58.5 -206t-56.5 -206t-148.5 -144.5t-199 -51.5q-93 0 -170.5 35t-128 93t-80.5 127t-39 143z" />
<glyph unicode="&#x2026;" horiz-adv-x="2074" d="M80 28v16q0 15 2 47.5t2 52.5v52q0 244 32 244h408q98 0 98 -28v-430q-1 0 -11 1t-11 1q-72 -5 -205 -9.5t-173 -6.5h-108l-32 46q-2 4 -2 14zM758 40v32q0 152 10 342q0 30 270 30h142q112 0 120 -28v-410q-7 -20 -109 -29t-219 -9h-182l-30 44q0 18 -2 28zM1434 88 q0 141 10 328q0 30 164 30q32 0 96 -1t100 -1q14 -2 61 -3t77 -5.5t34 -17.5q0 -35 1 -103.5t1 -104.5q0 -11 -1 -31t-1 -31v-72q4 -48 4 -72q-12 -36 -280 -36q-33 0 -65 0.5t-51 1t-20 0.5h-96l-32 42q0 12 -1 37.5t-1 38.5z" />
<glyph unicode="&#x202f;" horiz-adv-x="357" />
<glyph unicode="&#x205f;" horiz-adv-x="447" />
<glyph unicode="&#x20ac;" horiz-adv-x="1444" d="M-4 486q3 11 11 40.5t15 53t15.5 50t17.5 43t17 19.5h48q0 11 1 32t1 32h-54q-68 0 -68 28l60 211l96 -3q73 294 290 420l62 32q22 7 102 36q85 20 234 20q101 0 199 -19.5t182 -57t141.5 -99t71.5 -138.5v-60q0 -3 -0.5 -7.5t-1 -6t-1.5 -3.5t-2.5 -3t-4.5 -2h-460 q0 64 -38.5 113t-107.5 49q-33 0 -59 -28t-39 -67.5t-21.5 -79t-10.5 -67.5l-2 -28h350q28 -3 28 -36l-28 -92l-24 -96q-10 -16 -24 -16h-96q-90 -6 -92 -6q-19 0 -58 1t-58 1v-56q76 4 116 4q11 0 32.5 -1t33.5 -1q13 0 41 1t41 1q35 -3 35 -31l-55 -167q-29 2 -70 2 t-89.5 -1t-68.5 -1q0 -2 4.5 -37t8.5 -54.5t12 -57t19 -61t26.5 -49.5t37.5 -38.5t48 -12.5q42 0 73 19.5t46.5 51.5t22 62.5t6.5 62.5l416 26q16 -1 23.5 -8.5t12.5 -25.5q-9 -96 -53.5 -172t-108 -124.5t-148 -82t-166.5 -49t-172 -20.5q-59 0 -132.5 12.5t-119.5 29.5 h-28q-8 3 -18.5 11.5t-13.5 10.5l-60 36q-61 30 -109.5 77.5t-82.5 108t-55.5 114.5t-42.5 124h-132q-22 8 -22 30z" />
<glyph unicode="&#x2122;" horiz-adv-x="2072" d="M61 1344.5q0 10.5 0.5 36.5t0.5 43q0 61 19 74.5t99 13.5q27 0 80.5 -2t77.5 -2q43 0 138 3t144 3h54q16 0 40.5 -2.5t33 -6.5t22.5 -13t17.5 -20.5t9 -31t6.5 -43t1 -57.5q0 -37 -5 -49.5t-23 -18.5h-82q-66 0 -102 4q0 -16 -1 -48t-1 -48q0 -91 5 -269.5t5 -270.5 q-7 -36 -160 -36h-148l-30 48v42q0 106 4.5 300.5t5.5 273.5l-44 -2q-43 -2 -72 -2q-21 0 -36 2t-26 4.5t-17 11t-10 14t-5 22t-1 27zM882 646v88q8 500 10 750q0 24 20 24q228 0 342 -2q10 -1 22.5 -23t28.5 -69t24.5 -75.5t26.5 -88.5q8 -35 32 -99t32 -99l153 464 q32 0 101.5 -3t101.5 -3h58q110 0 110 -14q0 -145 6 -428.5t6 -427.5q-4 -18 -15 -23t-33 -5h-188q-23 0 -38 14.5t-22 42t-9.5 55t-2.5 64.5v144l-40 -148q-32 -106 -49 -133q-28 -44 -94 -50q-15 -1 -33 -1q-19 0 -58.5 2t-59.5 2q-30 24 -46.5 62t-30.5 96t-25 86l-22 76 q-1 -32 -2.5 -90t-2.5 -105.5t-1 -90.5q-3 -20 -31.5 -25t-76.5 -5h-116q-46 0 -62 7t-16 31z" />
<glyph unicode="&#xe000;" horiz-adv-x="1380" d="M0 1380h1380v-1380h-1380v1380z" />
</font>
</defs>
</svg>
